#TITLE:Axion;
#SUBTITLE:Magic Mash Man;
#ARTIST:BMS;
#TITLETRANSLIT:;
#SUBTITLETRANSLIT:;
#ARTISTTRANSLIT:;
#CREDIT:;
#BANNER:banner.png;
#BACKGROUND:Axion.png;
#LYRICSPATH:;
#CDTITLE:;
#MUSIC:BMS - AXION.mp3;
#OFFSET:0.000;
#SAMPLESTART:100.000;
#SAMPLELENGTH:11.960;
#SELECTABLE:YES;
#BPMS:0.000=80.000,2.000=160.002,2.750=55.001,3.000=80.000,19.000=160.005,21.000=159.995,22.000=160.005,23.000=159.995,24.000=160.005,26.000=159.995,27.000=160.005,28.000=159.995,29.000=160.005,31.000=159.995,32.000=160.005,34.000=159.995,35.000=160.005,36.000=159.995,37.000=160.005,39.000=159.995,40.000=160.005,41.000=159.995,42.000=160.005,44.000=159.995,45.000=160.005,46.000=159.995,47.000=160.005,49.000=159.995,50.000=160.005,51.000=159.995,52.000=160.005,53.000=27.000,53.250=350.000,54.000=160.024,56.000=160.015,57.000=160.024,59.000=160.015,60.000=160.024,62.000=160.015,63.000=160.024,65.000=160.015,66.000=160.024,68.000=160.015,69.000=160.024,71.000=160.015,72.000=160.024,74.000=160.015,75.000=160.024,77.000=160.015,78.000=160.024,81.000=160.015,82.000=160.024,84.000=160.015,85.000=160.024,87.000=160.015,88.000=160.024,90.000=160.015,91.000=160.024,93.000=160.015,94.000=160.024,96.000=160.015,97.000=160.024,99.000=160.015,100.000=160.024,102.000=160.015,103.000=160.024,105.000=160.015,106.000=160.024,108.000=160.015,109.000=160.024,111.000=160.015,112.000=160.024,114.000=160.015,115.000=160.024,117.000=160.015,118.000=160.024,120.000=160.015,121.000=160.024,123.000=160.015,124.000=160.024,126.000=160.015,127.000=160.024,129.000=160.015,130.000=160.024,132.000=160.015,133.000=160.024,135.000=160.015,136.000=160.024,138.000=160.015,139.000=160.024,141.000=160.015,142.000=160.024,144.000=160.015,145.000=160.024,147.000=160.015,148.000=160.024,149.000=80.007,149.250=320.029,150.000=80.000,151.000=80.007,151.250=25.000,151.375=160.015,152.000=80.000,153.000=80.007,153.250=25.000,153.375=159.999,154.000=80.000,155.000=80.007,155.250=25.000,155.375=160.015,156.000=80.000,159.000=80.007,159.250=25.000,159.375=160.015,160.000=80.000,161.000=80.007,161.250=25.000,161.375=160.015,162.000=80.000,163.000=80.007,163.250=25.000,163.375=160.015,164.000=80.022,165.000=80.017,165.250=25.000,165.500=350.000,167.000=160.005,169.000=159.995,170.000=160.005,171.000=159.995,172.000=160.005,174.000=159.995,175.000=160.005,176.000=159.995,177.000=160.005,179.000=159.995,180.000=160.005,181.000=159.995,182.000=160.005,184.000=159.995,185.000=160.005,186.000=159.995,187.000=160.005,189.000=159.995,190.000=160.005,191.000=159.995,192.000=160.005,194.000=159.995,195.000=160.005,196.000=159.995,197.000=160.005,199.000=159.995,200.000=160.005,201.000=159.995,202.000=160.005,204.000=159.995,205.000=160.005,206.000=159.995,207.000=80.007,207.250=320.029,208.000=80.007,208.250=320.029,209.000=80.007,209.250=320.029,209.750=80.007,210.000=320.029,210.500=80.007,210.750=320.029,211.250=80.007,211.500=320.029,212.000=80.007,212.250=320.029,212.750=80.007,213.000=320.029,213.250=160.002,214.000=160.005,215.000=80.002,216.000=80.000,218.000=80.002,219.000=80.000,220.000=80.002,221.000=80.000,222.000=160.005,223.000=159.995,224.000=80.002,225.000=80.000,227.000=80.002,228.000=80.000,229.000=80.002,230.000=80.000,231.000=80.002,232.000=160.005,233.000=159.995,234.000=160.005,236.000=159.995,237.000=160.005,238.000=159.995,239.000=160.005,241.000=159.995,242.000=160.005,243.000=159.995,244.000=160.005,246.000=159.995,247.000=160.005,248.000=159.995,248.500=79.998,248.750=320.029,249.000=319.990,250.000=25.001,250.250=320.029,251.000=319.990,252.000=160.015,252.500=80.007,252.750=320.029,253.000=319.990,254.000=25.001,254.250=320.029,255.000=319.990,256.000=160.005,257.000=159.995,258.000=160.005,260.000=159.995,261.000=160.005,262.000=159.995,263.000=160.005,265.000=159.995,266.000=160.005,267.000=159.995,268.000=160.005,270.000=159.995,271.000=160.005,272.000=159.995,273.000=160.005,275.000=159.995,276.000=160.005,278.000=159.995,279.000=160.005,280.000=159.995,281.000=160.005,283.000=159.995,284.000=160.005,285.000=159.995,286.000=160.005,288.000=159.995,289.000=160.005,290.000=159.995,291.000=160.005,293.000=159.995,294.000=160.005,295.000=159.995,296.000=160.005,298.000=159.995,299.000=160.005,300.000=159.995,301.000=160.005;
#STOPS:;
#BGCHANGES:;
// cache tags:
#FIRSTBEAT:2.000;
#LASTBEAT:265.750;
#SONGFILENAME:Songs/SDO 7/BMS - AXION (ICHI)/BMS - AXION.sm;
#HASMUSIC:1;
#HASBANNER:1;
#MUSICLENGTH:132.519;
// end cache tags

//---------------dance-single - ----------------
#NOTES:
     dance-single:
     :
     Hard:
     54:
     1.000,1.000,1.000,1.000,1.000,864.000,163.000,221.000,0.000,174.000:
0000
0000
0000
0000
0000
0000
0000
0000
2000
0000
0000
0000
3111
1000
0100
0010
,
0000
0000
0100
0010
0000
0001
0010
0100
0000
1000
0001
0100
1001
0010
0001
0100
,
0000
1000
0010
0100
0000
1000
0001
0100
0000
0001
1000
0120
1031
0100
1000
0100
,
0000
0000
0010
0100
0000
1000
0001
0100
0000
0001
0010
0100
1001
0010
0100
0010
,
0000
1000
0100
0010
0000
1000
0001
0100
0000
0001
0020
0100
1031
0000
0100
0000
,
1000
0010
0000
0001
0100
0010
0000
0001
,
0100
0000
1000
0000
0000
0100
0010
1000
0101
0000
1000
0010
0101
0000
0010
1000
,
0001
0100
0010
1000
0100
0000
0010
1000
0100
0001
0010
0100
1000
0000
0001
0100
,
0010
1000
0001
0100
0010
0000
1000
0001
0100
0010
0001
1000
0100
0000
0010
0001
,
0100
0010
1000
0001
0100
0000
1000
0001
0100
0010
0001
1000
0100
0000
0001
0010
,
0100
1000
0001
0100
0010
0000
0100
1000
0001
0100
0010
1000
0001
0000
0001
0010
,
0100
0010
0001
1000
0100
0000
0001
0001
0001
1000
1000
0100
0100
0000
0010
0010
,
0010
0100
0100
0001
0001
0010
0100
1000
0001
0100
0010
0001
1010
0000
0001
0010
,
0000
0010
0100
1000
0220
0000
0000
0000
1331
0100
0010
1000
0101
0010
0100
0010
,
0001
0010
1100
0010
1001
0100
0010
1000
0101
0010
0100
0010
1001
0100
0001
1000
,
0010
0001
1010
0100
1001
0010
0100
0001
1100
0010
0100
1000
0101
0010
0100
0001
,
1100
0010
1100
0010
0101
1000
0010
1000
0101
0010
0100
0010
1001
0100
0010
1000
,
0001
0010
0101
0010
1100
0001
0100
0010
1001
0100
0001
1000
0101
0010
0001
0100
,
0010
0001
1100
0100
0011
1000
0010
1000
0101
0010
0100
0010
1001
0100
0001
1000
,
0010
1000
0101
0010
0101
1000
0010
0100
1001
0010
0100
1000
0101
0010
0100
1000
,
0001
0010
0101
1000
0101
1000
0010
0100
0011
1000
0001
0010
1100
0001
0100
0010
,
1000
0001
1010
0100
1010
0001
0100
0010
2101
0000
0010
0000
0011
0000
0010
0100
,
3021
0000
1001
0000
0201
0000
0000
0000
1332
0000
1000
0000
1100
0000
0010
1000
,
0123
0000
1100
0000
0102
0000
1100
0000
1233
0000
0010
0000
1001
0000
0001
0010
,
2301
0010
0100
0010
0001
0010
0000
0010
3102
1000
0010
0100
0010
0100
0000
0010
,
1203
0010
0001
1000
0010
1000
0000
1000
0321
1000
0100
0001
1000
0100
0000
0001
,
2130
0010
0001
0010
0100
0010
0000
0100
3012
0100
1000
0100
0010
1000
0000
0010
,
1203
0010
0001
0010
1000
0001
1000
0001
1320
0100
0001
1000
0001
0100
0000
0100
,
2031
0100
0010
0001
0010
0100
0010
0000
3102
0000
1020
0100
0100
1000
1000
0100
,
0133
0000
0010
0000
0010
0000
0001
0000
0001
0000
0010
0000
0100
0001
0010
0100
1002
0000
0100
0000
1000
0000
0123
0000
1000
0000
0001
0000
1230
0000
0001
0000
,
1020
0001
2030
0001
3020
1000
0032
1000
0023
1000
0001
1000
0001
1000
0001
1000
,
0001
1000
0001
1000
0332
1000
0100
1000
0123
1000
0001
1000
0100
0001
0100
1000
,
0100
0001
0100
1000
0130
0010
0001
1000
0200
0010
0001
1000
0010
0001
1000
0001
,
1320
0000
0000
0100
0000
0000
0001
0000
0000
1000
0000
0000
0130
0000
0001
0000
0010
0000
0100
0000
1000
0000
0001
0000
2020
0000
0000
3030
0000
0000
0202
0000
0000
0303
0000
0000
2020
0000
0000
3030
0000
0000
1022
0000
0000
0030
0000
0000
,
1100
0000
0110
0000
1010
0000
1100
0003
0122
0033
2202
3303
0222
0333
2221
0000
,
0032
0000
0320
0000
3200
0000
2030
0010
3023
0001
1300
0100
1032
0010
0100
1000
,
0123
1000
0001
0100
2031
0010
0100
0010
3102
1000
0100
0010
0100
1000
0100
0010
,
2203
0000
0001
0000
0010
0000
0001
0000
0010
0000
0000
0000
0000
0000
0000
0000
3301
0010
0100
1000
0001
0010
0100
1000
0001
0010
0200
0000
0000
0000
0000
0000
,
1300
0100
0010
0001
1000
0100
0010
0001
1000
0100
0020
0000
0000
0000
0000
0030
0001
0010
0100
1000
0001
0010
0100
1000
0001
0010
0200
0000
0000
0000
0000
0300
,
1000
0100
0010
0001
1000
0100
0010
0001
1000
0100
0010
0001
0010
0100
1000
0100
0010
0001
0010
0100
1000
0100
0010
0001
0010
0100
2000
0000
0000
0000
0000
0000
,
3001
0010
0100
1000
0100
0010
0001
0010
0100
1000
0200
0000
0000
0000
0000
0000
0301
0010
0100
1000
0100
0010
0001
0010
0100
1000
0200
0000
0000
0000
0000
0000
,
1311
0100
0010
0001
1000
0001
0100
0010
1000
0001
0220
0000
0000
0000
0000
0000
0000
0000
0000
0000
0000
0000
0000
0000
2331
0000
0100
0000
0010
0000
0201
0000
,
0010
0001
0020
3001
1302
0130
0010
0100
0010
1000
0120
1000
0203
1000
0031
2310
,
0001
0100
0021
0100
3001
1000
0102
1000
0100
2000
0133
0010
3102
0010
0100
1020
,
0100
1033
0201
0010
1002
0010
1000
0010
1300
0120
1000
0130
1020
0100
1000
0100
,
1000
0000
0000
0133
0000
0000
2010
0000
0000
0001
0000
0000
0100
0000
0000
0010
0000
0000
0001
0000
0000
0100
0000
0000
3021
0000
0000
0100
0000
0000
1000
0000
0000
0100
0000
0000
1031
0000
0000
0200
0000
0300
0020
0000
0030
0200
0000
0300
,
0020
0000
0030
0200
0000
0300
0000
0000
0000
0000
0000
0000
1001
0000
0000
0020
0000
0030
0200
0000
0300
0020
0000
0030
0200
0000
0300
0020
0000
0030
0000
0000
0000
0000
0000
0000
1001
0000
0000
0200
0000
0300
0002
0000
0003
0200
0000
0300
,
0002
0000
0003
0200
0000
0300
0000
0000
0000
0000
0000
0000
1001
0000
0000
0020
0000
0030
2000
0000
3000
0020
0000
0030
2000
0000
3000
0020
0000
0030
0201
0000
0300
2000
0000
3000
0200
0000
0300
0020
0000
0030
1002
0000
0003
0020
0000
0030
,
0200
0000
0300
2000
0000
3000
0201
0000
0300
0020
0000
0030
0002
0000
0003
0020
0000
0030
1200
0000
0300
0020
0000
0030
0002
0000
0003
0020
0000
0030
0201
0000
0300
2000
0000
3000
0200
0000
0300
0020
0000
0030
0102
0000
0003
2000
0000
3000
,
0200
0000
0300
0020
0000
0030
0102
0000
0003
2000
0000
3000
0200
0000
0300
0020
0000
0030
0102
0000
0003
2000
0000
3000
0200
0000
0300
0020
0000
0030
0102
0000
0003
2000
0000
3000
0112
0000
0000
1000
0000
0000
0100
0000
0000
1023
0000
0000
,
0001
1000
0231
0010
2301
0100
0010
3001
0100
2010
0100
0001
3210
1000
0001
1320
,
0100
1000
0132
0010
0103
1002
0010
0100
1003
0010
0102
1000
0223
0000
0000
0000
,
1331
0000
0000
0000
0111
0000
0000
0111
0000
0000
1101
0000
0000
0111
0000
0000
,
1111
0000
0000
0000
0000
0000
0000
0000
0000
0111
0000
0000
0000
0000
0000
0000
0002
0000
0000
0000
0020
0000
0000
0000
0200
0000
0000
0000
2300
0000
0000
0000
0230
0000
0000
0000
0023
0000
0000
0000
0000
0000
0000
0000
0000
0000
0000
0000
,
3331
0020
2030
0000
3222
0000
0000
0000
1333
0200
0320
0000
2232
0000
0000
0000
,
3313
0000
0000
0200
0000
0000
0302
0000
0000
0000
0000
0000
2223
0000
0000
0000
0000
0000
0000
0000
0000
0000
0000
0000
3332
0000
0003
0020
0000
0030
0200
0000
0300
2000
0000
3000
0002
0000
0003
0020
0000
0030
0200
0000
0300
2000
0000
3000
,
0222
0000
0000
0000
0000
0000
0000
0000
0000
0000
0300
0000
0100
0000
0000
0000
1030
0000
0000
0000
0103
0000
0000
1000
0010
0000
0100
0000
0001
0000
0100
0000
,
0020
0000
0000
0000
2000
0000
0000
0000
3032
0000
0000
0000
0020
0000
1000
0000
0233
0000
0000
0000
0000
0000
0000
0000
1301
0010
0100
1000
0001
0100
0010
1000
,
0202
0000
0000
0000
2323
3030
0000
0000
2020
0000
0000
3030
0001
0010
0100
1000
,
0100
0010
0001
0010
2200
0000
0000
0000
3322
0033
0000
0000
0022
0000
0000
0033
,
1110
0000
0000
0000
0000
0000
0000
0000
0000
0000
0000
0000
0000
0000
0000
0000
2200
0000
0000
0000
3300
0000
0000
0000
0010
0000
0000
0000
0000
0000
0000
0000
2200
0000
0000
0000
0000
0000
0000
0000
0000
0000
0000
0000
3300
0000
0000
0000
0010
0000
0000
0000
0000
0000
0000
0000
0001
0000
0000
0000
0000
0000
0100
0010
,
0001
0000
0100
0010
2002
0000
3113
0000
,
1101
1101
0000
0000
0220
0000
0330
0000
,
1101
1101
0000
0000
0220
0000
0330
0000
,
2101
0010
0100
0001
0010
0100
3010
0100
1000
0100
1000
0100
0001
1000
0001
1000
,
0111
0000
1000
0100
0010
0000
0001
1000
0022
0000
0000
0200
2000
0000
0000
0000
,
3300
0000
0000
0000
0000
0000
0000
0033
0000
0000
0000
0000
0000
0000
0000
0000
,
0000
0000
0000
0000
,
0000
0000
0000
0000
,
0000
0000
0000
0000
,
0000
0000
0000
0000
,
0000
0000
0000
0000
,
0000
0000
0000
0000
,
0000
0000
0000
0000
,
0000
0000
0000
0000
,
0000
0000
0000
0000
,
0000
0000
0000
0000
,
0000
0000
0000
0000
,
0000
0000
0000
0000
,
0000
0000
0000
0000
,
0000
0000
0000
0000
,
0000
0000
0000
0000
,
0000
0000
0000
0000
,
0000
0000
0000
0000
,
0000
0000
0000
0000
;
